dinsdag 28 september 2010

Gustave Bret: Fauré Requiem (DG, 1930)


Gabriel Fauré componeerde zijn Requiem in d op. 48 tussen 1877 en 1890. Het Requiem is Faurés bekendste langere werk. Het stuk is geschreven voor koor en orkest. De beroemdste stukken uit het Requiem zijn de Hostias-solo van de bariton in het Offertorium, de sopraanaria Pie Jesu en het Libera Me
We horen een uitvoering o.l.v. de Franse dirigent, componist, organist en criticus Gustave Bret (1875-1969). Hij studeerde bij Widor en D'Indy, en was organist van de Parijse kerk Saint-Sulpice. Hij was de eerste die alle orgelwerken van César Franck in 1903-4 uitvoerde. Bret componeerde o.a. een oratorium, Les Pélerins d'Emmaüs, waarvan de première in 1903 in Amsterdam plaatsvond. In 1904 richtte hij de Société Bach op, die ook bij deze opname onder zijn leiding staat.  De  opname is van 10 maart 1930 en verscheen in een mooi blauw album op 5 78t.platen op Franse HMV, Disque Gramophone.



De organist is Alexandre Cellier (1883-1968). Hij was van 1910 tot zijn dood organist van de Temple de l'Étoile in Parijs. Verder componeerde Cellier m.n. orgelmuziek en kamermuziek.
De bariton is Louis Morturier.
De sopraan is Mme (Fanny) Malnory-Marseillac (1887-1979).


Gabriel Fauré: Requiem in d op.48
1  Introït et Kyrie
2  Offertoire
3  Sanctus
4  Pie Jesu
5  Agnus Dei
6  Libera me
7  In Paradisum
Choeur de la Société Bach + orkest o.l.v. Gustave Bret
Alexandre Cellier: orgel
Louis Morturier: bariton
Fanny Malnory-Marseillac: sopraan
78t 30 cm: Disque Gramophone W 1154-8 (52 - 796-805)
Opname: 10-03-1930
Duur: 37:14

Download mp3

12 opmerkingen:

  1. Thank you for this wonderful recording. And, while I'm at it, for the amazing Messiaen piece a couple of posts back.

    I even split the whole Requiem into individual tracks just to be able to listen to my favourite bits on repeat.

    BTW, Shouldn't "Pie Jesu" be No. 4 on the tracklist? :)

    Best wishes and thanks again!

    Przemek

    BeantwoordenVerwijderen
  2. Of course you're right! Thanks for your comment.

    BeantwoordenVerwijderen
  3. Dear Sir -

    I have wanted to hear this for many years, but have never been able to find the discs. Thank you very much for this important document, and for the unusual and important downloads that you offer!

    - Bill Anderson, Chicago, IL USA

    BeantwoordenVerwijderen
  4. Thanks for your reaction, Bill! You're welcome on this blog!

    BeantwoordenVerwijderen
  5. This is a really important document. With permission, I've linked it in my little comparative discography about Fauré's Requiem, here (you are welcome):
    http://ipromesisposi.blogspot.com/
    Thank you very much indeed.

    BeantwoordenVerwijderen
  6. That's a very fine blog you have, Ipromesisposi! Recommended!

    BeantwoordenVerwijderen
  7. Thanks for the music. For spliting i have made a cue-sheet, a text file "requiem.cue" with content:

    REM DATE 1930
    PERFORMER "Gustave Bret"
    TITLE "Gabriel Fauré: Requiem in d op.48"
    FILE "01 - Gustave Bret - Fauré Requiem (1930).mp3" WAVE
    TRACK 01 AUDIO
    TITLE "1. Introït et Kyrie"
    INDEX 01 00:00:00
    TRACK 02 AUDIO
    TITLE "2. Offertoire"
    INDEX 01 06:42:00
    TRACK 03 AUDIO
    TITLE "3. Sanctus"
    INDEX 01 14:54:30
    TRACK 04 AUDIO
    TITLE "4. Pie Jesu"
    INDEX 01 18:41:03
    TRACK 05 AUDIO
    TITLE "5. Agnus Dei"
    INDEX 01 22:58:60
    TRACK 06 AUDIO
    TITLE "6. Libera me"
    INDEX 01 27:18:74
    TRACK 07 AUDIO
    TITLE "7. In Paradisum"
    INDEX 01 33:46:70

    This works fine with foobar2000

    BeantwoordenVerwijderen
  8. Thank you for posting this wonderful and important version of the Requiem. I'm forever grateful to people like you, Bill, Bryan, et. al for going to the trouble to share your amazing collections.

    Do you have or know of an early (and good) recording of Ravel's Mother Goose Suite?
    Regards, Doug

    BeantwoordenVerwijderen
  9. Thanks for your support! I have a Mother Goose from Fernando Previtali,not so very old: 1949...

    BeantwoordenVerwijderen
  10. Merci beaucoup pour ce partage. It is a wonderful document, and confirms my assumptions on the past latin pronunciation. Are you sure of 1930? It is 1931 on Wikipedia.
    Best regards,
    Bertrand (from Toulouse, France, near Pamiers...)

    BeantwoordenVerwijderen
    Reacties
    1. Merci! It's 10-03-1930 on CHARM database (see to the right under "Links").

      Verwijderen